Login
Username:
Password:
[Signup]
[Recover Account]


Browse Torrents

Poll


You must be logged in to view polls



Latest Torrents
Gotham.S05E06.13.S...
- [Size: 1.08 GB]

Live.PD.S03E45.WEB...
- [Size: 1.77 GB]

Who.Wants.to.Be.a....
- [Size: 160.08 MB]

Who.Wants.to.Be.a....
- [Size: 160.23 MB]

Burguesinha (2017)...
- [Size: 362.54 MB]


Torrent Details For "Game Of Thrones S01 x264 720p Esub Dual Audio English Hindi GOPISAHI"

Game Of Thrones S01 x264 720p Esub Dual Audio English Hindi GOPISAHI

Download this torrent | Magnet Download
Health:
Seeds: 74
Leechers: 96
Completed: 448 
Last Checked: 16-02-2019 10:10:58
External Torrent
Update Stats



Images Host

Poster
No poster


Watch-Free-HD     Download

Details
Name:Game Of Thrones S01 x264 720p Esub Dual Audio English Hindi GOPISAHI
Description:
 http://www.gopisahi.pw/



Game Of Thrones S01 x264 720p Esub Dual Audio English Hindi GOPISAHI

Format                         : Matroska
Format version                 : Version 4 / Version 2
File size                      : 314 MiB
Duration                       : 55 min 17 s
Overall bit rate               : 794 kb/s

Video
Format                         : AVC
Format/Info                    : Advanced Video Codec
Codec ID                       : V_MPEG4/ISO/AVC
Duration                       : 55 min 17 s
Bit rate                       : 599 kb/s
Width                          : 1 280 pixels
Height                         : 720 pixels
Display aspect ratio           : 16:9
Frame rate mode                : Constant
Frame rate                     : 23.976 (24000/1001) FPS
Color space                    : YUV
Chroma subsampling             : 4:2:0
Bit depth                      : 8 bits
Scan type                      : Progressive
Bits/(Pixel*Frame)             : 0.027
Stream size                    : 237 MiB (75%)
Title                          : GOPISAHI
Writing library                : x264 core 157 r2935 545de2f

Audio #1
Format                         : AAC
Duration                       : 55 min 17 s
Bit rate                       : 96.0 kb/s
Channel(s)                     : 2 channels
Channel positions              : Front: L R
Sampling rate                  : 48.0 kHz
Frame rate                     : 46.875 FPS (1024 SPF)
Compression mode               : Lossy
Delay relative to video        : -21 ms
Stream size                    : 38.1 MiB (12%)
Title                          : GOPISAHI
Language                       : Hindi

Audio #2
Format                         : AAC
Duration                       : 55 min 17 s
Bit rate                       : 96.0 kb/s
Channel(s)                     : 2 channels
Channel positions              : Front: L R
Sampling rate                  : 48.0 kHz
Frame rate                     : 46.875 FPS (1024 SPF)
Compression mode               : Lossy
Delay relative to video        : 9 ms
Stream size                    : 38.1 MiB (12%)
Title                          : GOPISAHI
Language                       : English

Text
Language                       : English

Menu
00:00:00.000                   : en:00:00:00.000
00:00:06.089                   : en:00:00:06.006
00:01:47.149                   : en:00:01:47.107
00:08:43.398                   : en:00:08:43.398
00:18:47.793                   : en:00:18:47.793
00:28:42.095                   : en:00:28:41.929
00:38:19.005                   : en:00:38:18.922
00:46:46.178                   : en:00:46:46.012
00:54:12.750                   : en:00:54:12.666


Category:Movies > Hollywood Dub
Lang:Hindi
Total Size:3.05 GB
Info Hash:e9f0597d20d72b23c7d32aef8db7cf4ac9971543
Added By:gopisahi
Date Added:09-02-2019 13:45:44
Downloads:214

Ratings:Not Yet Rated (Log in to rate it)


Tracker:
udp://tracker.coppersurfer.tk:6969/announce


File List: 


Comments

No comments still posted

Top
Copyright 2018 DownloadHD -|- Page Generated In 0.535389 secs.
-|- RSS Feed -|- Feed Info