Login
Username:
Password:
[Signup]
[Recover Account]


Browse Torrents

Poll


You must be logged in to view polls



Latest Torrents
The.Voice.UK.S08E0...
- [Size: 1.89 GB]

Why Cheat India (2...
- [Size: 730.82 MB]

Biporjoy (2017) Be...
- [Size: 1.03 GB]

Encounter.2019.DVD...
- [Size: 1.27 GB]

Encounter.2019.DVD...
- [Size: 1.27 GB]


Torrent Details For " Mojin The Lost Legend 2015 x264 720p Esub BluRay Dual Audio Hindi Chinese GOPISAHI"

Mojin The Lost Legend 2015 x264 720p Esub BluRay Dual Audio Hindi Chinese GOPISAHI

Download this torrent | Magnet Download
Health:
Seeds: 466
Leechers: 383
Completed: 162 
Last Checked: 08-01-2019 10:04:52
External Torrent
Update Stats



Images Host

Poster
No poster


Watch-Free-HD     Download

Details
Name: Mojin The Lost Legend 2015 x264 720p Esub BluRay Dual Audio Hindi Chinese GOPISAHI
Description:
 http://www.gopisahi.pw/

Format                         : Matroska
Format version                 : Version 4 / Version 2
File size                      : 1.07 GiB
Duration                       : 2 h 4 min
Overall bit rate               : 1 228 kb/s
Movie name                     : Mojin The Lost Legend 2015 GOPISAHI

Video
Format                         : AVC
Format/Info                    : Advanced Video Codec
Codec ID                       : V_MPEG4/ISO/AVC
Duration                       : 2 h 4 min
Bit rate                       : 1 033 kb/s
Width                          : 1 280 pixels
Height                         : 688 pixels
Display aspect ratio           : 1.85:1
Frame rate mode                : Constant
Frame rate                     : 24.000 FPS
Color space                    : YUV
Chroma subsampling             : 4:2:0
Bit depth                      : 8 bits
Scan type                      : Progressive
Bits/(Pixel*Frame)             : 0.049
Stream size                    : 921 MiB (84%)
Title                          : GOPISAHI
Writing library                : x264 core 148 r2597 e86f3a1

Audio #1
Format                         : AAC
Duration                       : 2 h 4 min
Bit rate                       : 96.0 kb/s
Channel(s)                     : 2 channels
Channel positions              : Front: L R
Sampling rate                  : 48.0 kHz
Frame rate                     : 46.875 FPS (1024 SPF)
Compression mode               : Lossy
Stream size                    : 85.8 MiB (8%)
Title                          : GOPISAHI
Language                       : Hindi

Audio #2
Format                         : AAC
Duration                       : 2 h 4 min
Bit rate                       : 96.0 kb/s
Channel(s)                     : 2 channels
Channel positions              : Front: L R
Sampling rate                  : 48.0 kHz
Frame rate                     : 46.875 FPS (1024 SPF)
Compression mode               : Lossy
Delay relative to video        : 30 ms
Stream size                    : 85.7 MiB (8%)
Title                          : GOPISAHI
Language                       : Chinese

Text
Language                       : English

Menu
00:00:00.000                   : en:00:00:00.000
00:18:23.875                   : en:00:18:23.875
00:40:09.833                   : en:00:40:09.833
00:59:50.417                   : en:00:59:50.417
01:17:23.625                   : en:01:17:23.625
01:40:42.958                   : en:01:40:42.958

Category:Movies > Hollywood Dub
Lang:Hindi
Total Size:1.07 GB
Info Hash:d53e25cbe4b077fe40ef848e5784ff8b8bf2084c
Added By:gopisahi
Date Added:08-01-2019 04:17:51
Downloads:318

Ratings:Not Yet Rated (Log in to rate it)


Tracker:
udp://tracker.coppersurfer.tk:6969/announce


File List: 


Comments

No comments still posted

Top
Copyright 2018 DownloadHD -|- Page Generated In 0.449931 secs.
-|- RSS Feed -|- Feed Info