Login
Username:
Password:
[Signup]
[Recover Account]


Browse Torrents

Poll


You must be logged in to view polls



Latest Torrents
The.Profit.S06E00....
- [Size: 268.25 MB]

Ekta Bhalobasar Go...
- [Size: 722.40 MB]

Drunk.History.S06E...
- [Size: 120.23 MB]

Polar.2019.HDRip.X...
- [Size: 1.59 GB]

Evil.Lives.Here.S0...
- [Size: 177.75 MB]


Torrent Details For "Se7en 1995 264 720p Esub BluRay Dual Audio English Hindi GOPISAHI"

Se7en 1995 264 720p Esub BluRay Dual Audio English Hindi GOPISAHI

Download this torrent | Magnet Download
Health:
Seeds: 83
Leechers: 160
Completed: 88 
Last Checked: 08-01-2019 10:05:34
External Torrent
Update Stats



Images Host

Poster
No poster


Watch-Free-HD     Download

Details
Name:Se7en 1995 264 720p Esub BluRay Dual Audio English Hindi GOPISAHI
Description:
 http://www.gopisahi.pw/

Format                         : Matroska

Format version                 : Version 4 / Version 2

File size                      : 901 MiB

Duration                       : 2 h 6 min

Overall bit rate               : 993 kb/s

Movie name                     : Se7en 1995 GOPI SAHI


Video

Format                         : AVC

Format/Info                    : Advanced Video Codec

Codec ID                       : V_MPEG4/ISO/AVC

Duration                       : 2 h 6 min

Bit rate                       : 799 kb/s

Width                          : 1 280 pixels

Height                         : 528 pixels

Display aspect ratio           : 2.40:1

Frame rate mode                : Constant

Frame rate                     : 23.976 (24000/1001) FPS

Color space                    : YUV

Chroma subsampling             : 4:2:0

Bit depth                      : 8 bits

Scan type                      : Progressive

Bits/(Pixel*Frame)             : 0.049

Stream size                    : 731 MiB (81%)

Title                          : GOPI SAHI

Writing library                : x264 core 130 r2273 b3065e6


Audio #1

Format                         : AAC

Format/Info                    : Advanced Audio Codec

Duration                       : 2 h 6 min

Bit rate                       : 91.9 kb/s

Channel(s)                     : 2 channels

Channel positions              : Front: L R

Sampling rate                  : 48.0 kHz / 24.0 kHz

Frame rate                     : 23.438 FPS (1024 SPF)

Compression mode               : Lossy

Stream size                    : 83.3 MiB (9%)

Title                          : GOPI SAHI

Language                       : English


Audio #2

Format                         : AAC

Format/Info                    : Advanced Audio Codec

Duration                       : 2 h 6 min

Bit rate                       : 93.6 kb/s

Channel(s)                     : 2 channels

Channel positions              : Front: L R

Sampling rate                  : 44.1 kHz

Frame rate                     : 43.066 FPS (1024 SPF)

Compression mode               : Lossy

Stream size                    : 84.9 MiB (9%)

Title                          : GOPI SAHI

Language                       : Hindi


Text

Language                       : English


Category:Movies > Hollywood Dub
Lang:Hindi
Total Size:901.26 MB
Info Hash:113380fc2891045de5ab0867b6b67ed374a59cd9
Added By:gopisahi
Date Added:08-01-2019 03:29:16
Downloads:243

Ratings:Not Yet Rated (Log in to rate it)


Tracker:
udp://tracker.coppersurfer.tk:6969/announce


File List: 


Comments

No comments still posted

Top
Copyright 2018 DownloadHD -|- Page Generated In 0.611783 secs.
-|- RSS Feed -|- Feed Info